Reply
Logi Nu
Wodjee
Posts: 1
Registered: ‎01-04-2012

Webcam C615 cannot go above 15 FPS

[ Edited ]

Hi,

 

I've recently bought a C615 because it seems to be able to run 30 FPS at 720p resolution.

 

However it seems to block the fps at 15 whatever I do.

 

I know someone that is recording 720p 30 FPS videos with the logitech webcam software.

 

I've tried some third party software to record. However even if you set the framerate at 30, the real framerate is lower.

 

My computer specs are :

 

Core2 Quad 2.4 GHz

4GB DDR2

geforce 8800 GT

Windows 7 64x

 

I load the logitech webcam software : Version 2.3, build 13.30.1396

 

In device info :

 

Device information

Firmware version : 7.0.1194

Firmware CRC : 0XE751

EEPROM version : 2.52

Sensor Type : 2.3

 

Driver information

Driver version : 13.30.1394.0 (how comes it does not match the build version found in Preferences -> About ... ? )

 

Then I go in quick capture and I set the following settings :

 

Resolution : 360p, widescreen

Follow my face : Off

RightSound : Off

RightLight : Off

AutoFocus : On

Exposure and Gain : Set to minimum.

 

Then I record a video and go to its properties :

 

General
Complete name               : Video 16.wmv
Format                               : Windows Media
File size                             : 544 KiB
Duration                         : 17s 133ms
Overall bit rate mode            : Variable
Overall bit rate                 : 260 Kbps
Maximum Overall bit rate         : 1 557 Kbps

Video
ID                               : 2
Format                           : WMV2
Codec ID                         : WMV2
Codec ID/Info                    : Windows Media Video 8
Description of the codec         : Windows Media Video V8
Duration                         : 17s 133ms
Bit rate mode                    : Variable
Bit rate                         : 21.2 Kbps
Width                            : 640 pixels
Height                           : 360 pixels
Display aspect ratio             : 16:9
Frame rate                       : 15.000 fps
Bit depth                        : 8 bits
Bits/(Pixel*Frame)               : 0.006
Stream size                      : 44.3 KiB (8%)
Language                         : French (CH)

Audio
ID                               : 1
Format                           : WMA
Format version                   : Version 2
Codec ID                         : 161
Codec ID/Info                    : Windows Media Audio
Description of the codec         : Windows Media Audio 9.2 - 191 kbps, 48 kHz, stereo Low Delay 1-pass CBR
Duration                         : 17s 133ms
Bit rate mode                    : Constant
Bit rate                         : 1 411.2 Kbps
Channel(s)                       : 2 channels
Sampling rate                    : 48.0 KHz
Bit depth                        : 16 bits
Stream size                      : 2.88 MiB
Language                         : French (CH)

Any idea why I just can not record any video at 30 FPS ?

 

Is there a way to know which FPS @ Resolution are physically supported by the C615 ?

 

Thanks in advance.

 

 

 

 

KachiWachi
Posts: 48,044
Topics: 251
Kudos: 1,279
Solutions: 505
Registered: ‎05-22-2006
Country: null

Re: Webcam C615 cannot go above 15 FPS

Welcome to the Logitech Community Webcam Forum Wodjee! :smileyhappy:


Wodjee sez -

I've tried some third party software to record. However even if you set the framerate at 30, the real framerate is lower.



Please provide a sample video that illustrates this condition for evaluation.



Thanks.


KachiWachi - Webcam Forum Guru (2002), Logi Legend (2007), Distinguished Logi Legend (2010), QuickCam® Team Forums (2007)
(I am not affiliated with Logitech®, Inc., Lithium™ Technologies, Inc., RightNow® Technologies, Inc., or Salesforce.com, Inc.)
  Have you checked your Logitech Forums Private Messages today?  

If you are looking for official Logitech Customer / Technical Support, please >> CLICK HERE <<

In order to help keep the forum content "fresh", please do not post a reply to any thread that is over six (6) months old.


* Please note that I am currently NOT providing "general" troubleshooting assistance in the public forums at this time.
* However, if I am interested in your issue, and for all "advanced" issues, I will be sending you a Private Message before then.
* Thanks.

* PS - If one of my replies has adequately addressed your issue, please click on the "Accept as Solution" and "Give Kudos" buttons, so that this information can benefit others.

New to Webcams? START HERE!

Logitech Webcam Software 2.x (a.k.a. QuickCam 13.x) - Issues and Solutions
Logitech Webcam Software 1.00.1280 / 1.10.1113 (a.k.a. QuickCam 12.x) - Issues and Solutions
QuickCam 11.0.0.1218 / 11.1.0.2030 / 11.5.0.1169 / 11.8.0.1065 / 11.9.0.1263 - Issues and Solutions

Is your problem one of these older, common, known, or repeat issues?     "Everything Macintosh"
How to make your Logitech camera work in an IM                     Are you looking for (older) software?
Why your older Logitech camera *may* not be supported on Windows Vista, 7, 8, and/or on a 64-bit OS